Login Esegui login | Non sei registrato? Iscriviti ora (è gratuito!)
Username: Password:
  • Annuncio Pubblicitario

MP4 to AVI mantenendo tutte le tracce audio...

Non vedi il video in qualche filmato? Non senti il suono? Vuoi commentare la qualità degli ultimi formati audio o video? Hai problemi con il tuo DVD player? Parliamone insieme!

MP4 to AVI mantenendo tutte le tracce audio...

Messaggioda slobodanpinokkio » ven ago 28, 2009 7:28 pm

ciao a tutti,
ho una serie di file MP4 con doppia traccia audio, vorrei convertirli in AVI, ho usato parecchi convertitori:
OJOsoft Total Video Converter
Pazera_Free_MP4_to_AVI_Converter
MP4Cam2AVI_v2.38
AVSVideoConverter6
MediaCoder
ma non riescono a mantenere tutte le traccie audio, ma solo una.
Quale programma mi consente di fare questo?
ciao grazie
Avatar utente
slobodanpinokkio
Aficionado
Aficionado
 
Messaggi: 55
Iscritto il: mar ago 16, 2005 11:11 pm

Re: MP4 to AVI mantenendo tutte le tracce audio...

Messaggioda Andy94 » ven ago 28, 2009 8:57 pm

Per quanto ne so, il formato AVI non supporta più di una traccia audio, quindi il programma ne sceglie una (di solito la prima che trova) e scarta tutte le altre. Non credo che ci sia una soluzione.
Avatar utente
Andy94
Membro Ufficiale (Gold)
Membro Ufficiale (Gold)
 
Messaggi: 9998
Iscritto il: lun apr 09, 2007 8:39 pm

Re: MP4 to AVI mantenendo tutte le tracce audio...

Messaggioda slobodanpinokkio » sab ago 29, 2009 2:26 pm

Andy94 ha scritto:Per quanto ne so, il formato AVI non supporta più di una traccia audio, quindi il programma ne sceglie una (di solito la prima che trova) e scarta tutte le altre. Non credo che ci sia una soluzione.

ha si...?! e questa...:

General
Complete name : #:\#######\###############.avi
Format : AVI
Format/Info : Audio Video Interleave
File size : 227 MiB
Duration : 20mn 47s
Overall bit rate : 1529 Kbps
Writing application : VirtualDubMod 1.5.10.2 (build 2540/release)
Writing library : VirtualDubMod build 2540/release

Video
Format : MPEG-4 Visual
Format settings, BVOP : Yes
Format settings, QPel : No
Format settings, GMC : No warppoints
Format settings, Matrix : Default
Codec ID : DX50
Codec ID/Hint : DivX 5
Duration : 20mn 47s
Bit rate : 1130 Kbps
Width : 640 pixels
Height : 480 pixels
Display aspect ratio : 4/3
Frame rate : 25.000 fps
Resolution : 8 bits
Scan type : Progressive
Bits/(Pixel*Frame) : 0.147
Stream size : 168 MiB (74%)
Writing library : DivX 5.0.2 (UTC 2002-05-16)

Audio #1
Format : MPEG Audio
Format version : Version 1
Format profile : Layer 3
Codec ID : 55
Codec ID/Hint : MP3
Duration : 20mn 47s
Bit rate mode : Constant
Bit rate : 192 Kbps
Channel(s) : 2 channels
Sampling rate : 48.0 KHz
Resolution : 16 bits
Stream size : 28.5 MiB (13%)
Alignment : Split accross interleaves
Interleave, duration : 40 ms (1.00 video frame)
Interleave, preload duration : 500 ms
Writing library : LAME3.96

Audio #2
Format : MPEG Audio
Format version : Version 1
Format profile : Layer 3
Codec ID : 55
Codec ID/Hint : MP3
Duration : 20mn 47s
Bit rate mode : Constant
Bit rate : 192 Kbps
Channel(s) : 2 channels
Sampling rate : 48.0 KHz
Resolution : 16 bits
Stream size : 28.5 MiB (13%)
Alignment : Split accross interleaves
Interleave, duration : 40 ms (1.00 video frame)
Interleave, preload duration : 500 ms
Writing library : LAME3.96
è un file video con due tracce audio ex *.ogm convertito in *.avi.
Avatar utente
slobodanpinokkio
Aficionado
Aficionado
 
Messaggi: 55
Iscritto il: mar ago 16, 2005 11:11 pm

Re: MP4 to AVI mantenendo tutte le tracce audio...

Messaggioda Andy94 » sab ago 29, 2009 4:25 pm

Allora quanto ho trovato si è rivelato palesemente erroneo.
Per la cronaca, comunque, non ho nemmeno trovato software che dicono di mantenere tutte le tracce, quindi suppongo che o lo facciano già di loro oppure non sappiano proprio farlo.

Detto questo, non saprei come aiutarti.
Avatar utente
Andy94
Membro Ufficiale (Gold)
Membro Ufficiale (Gold)
 
Messaggi: 9998
Iscritto il: lun apr 09, 2007 8:39 pm


Torna a Audio e Video

Chi c’è in linea

Visitano il forum: Nessuno e 1 ospite

Powered by phpBB © 2002, 2005, 2007, 2008 phpBB Group
Traduzione Italiana phpBB.it

megalab.it: testata telematica quotidiana registrata al Tribunale di Cosenza n. 22/09 del 13.08.2009, editore Master New Media S.r.l.; © Copyright 2008 Master New Media S.r.l. a socio unico - P.I. 02947530784. GRUPPO EDIZIONI MASTER Spa Tutti i diritti sono riservati. Per la pubblicità: Master Advertising