Login Esegui login | Non sei registrato? Iscriviti ora (è gratuito!)
Username: Password:
  • Annuncio Pubblicitario

Conversione mp4

Non vedi il video in qualche filmato? Non senti il suono? Vuoi commentare la qualità degli ultimi formati audio o video? Hai problemi con il tuo DVD player? Parliamone insieme!

Conversione mp4

Messaggioda tique » lun dic 27, 2010 7:11 am

Da Google ho scaricato il fantastico "Home" in mpg4 con il programma Youtube downloader.
Poichè il mio TV, non riproduce HD (Samsung 32-B450) ho scaricato il filmato una seconda volta chiedendo la conversione in AVI che il programma You Tube downlower ha fatto regolarmente e che ho visto sul mio PC. Malgrado con il mio lettore DVD possa vedere files AVi, questo convertito non riesco a vederlo in TV.
Partendo dal file MPG4, che software per conversione video e quale formato dovrei ottenere per riuscire a vedere questo "Home" sul TV ?
Avatar utente
tique
Neo Iscritto
Neo Iscritto
 
Messaggi: 16
Iscritto il: sab dic 12, 2009 4:34 pm

Re: Conversione mp4

Messaggioda tique » lun dic 27, 2010 7:18 pm

Riformula la domanda che in effetti non è molto chiara.
Dunque scarico da YouTube il filmato "Home" in HD. Mi trovo con il file Home.mp4 di circa 1,39 Giga che vedo benissimo sul mio Desktop sia con
VLC che con Windows Media Player.
Desidero vederlo sul TV. Ho un lettore DVD con ingresso anche USB e che supporta i formati MPGE2-MPGE4-DIVX-etc Copio quindi il file su
una chiavetta ma purtroppo il lettore mi segnala "Formato HD non supportato". Poichè con questo lettore ho già visto filmati AVI tento la conversione
da Mp4 ad Avi con il software FormatFactory. La conversione sembra andare a buon fine. Il file AVI pesa quasi il doppio (2,67 Giga) del file
mp4 originale ed anche questo file AVi è visibile sul Desktop. Lo copio sulla chiavetta ma nuovamente il lettore segnala "Formato HD non supportato"
Per favore, qualche idea su come possa risolvere il problema.
Avatar utente
tique
Neo Iscritto
Neo Iscritto
 
Messaggi: 16
Iscritto il: sab dic 12, 2009 4:34 pm

Re: Conversione mp4

Messaggioda xalx67 » lun dic 27, 2010 10:36 pm

Magari la mia risposta sarà inutile e nel caso me ne scuso, ma la chiavetta in questione l' hai già usata altre volte collegandola al lettore, tanto per escludere che il problema sia quello?
Avatar utente
xalx67
Bronze Member
Bronze Member
 
Messaggi: 670
Iscritto il: sab nov 08, 2008 5:58 pm


Re: Conversione mp4

Messaggioda tique » mar dic 28, 2010 12:41 am

Conoscerai la legge di Murphy, quindi la tua ipotesi è non assolutamente fuori luogo.
Purtroppo non solo ho provato a leggere prima i file dalla chiavetta sul PC, ma per sicurezza ho anche copiato altri due file AVI sulla chiavetta
assieme a questo micidiale "Home.AVI" Gli altri due si vedevano
Ho perfino ipotizzato che esistesse qualche specie di protezione per cui fosse impossibile farne una copia su DVD o chiavetta (Home ha un sacco di sponsor, oltre a Google) ma le mia conoscenze terminano prima.
Avatar utente
tique
Neo Iscritto
Neo Iscritto
 
Messaggi: 16
Iscritto il: sab dic 12, 2009 4:34 pm

Re: Conversione mp4

Messaggioda tinoo » mar dic 28, 2010 10:12 am

Credo che la risposta sia nel tuo messaggio, se L'AVI in questione è stato convertito in HD, e il lettore non legge questo formato devi riprocessare ha un livello inferiore, Partendo da MP4 iniziale.
Carica il video su FormatFactory, premi il pulsante "media File info" in modo di Analizzare i codec Video e Audio di compressione.
copia>incolla il report.
Avatar utente
tinoo
Aficionado
Aficionado
 
Messaggi: 44
Iscritto il: lun dic 27, 2010 2:41 pm

Re: Conversione mp4

Messaggioda tique » mar dic 28, 2010 11:09 am

tinoo ha scritto:in modo di Analizzare i codec Video e Audio di compressione.
copia>incolla il report.


Si grazie, ho ottenuto il report ma poi non riesco a copiare il report da nessuna parte
Trovo il pulsante "copia negli appunti" ma cliccando non succede nulla, non trovo neanche la solita procedura Windows
di copia ed incolla. Scusami ma sono imbranato, cosa devo fare ??
Avatar utente
tique
Neo Iscritto
Neo Iscritto
 
Messaggi: 16
Iscritto il: sab dic 12, 2009 4:34 pm

Re: Conversione mp4

Messaggioda tinoo » mar dic 28, 2010 3:05 pm

la procedura del copia incolla è questa:
FormatFactory > media File Info > Copia negli appunti
avvii Notepad di Windows > posizioni il cursore nella pagina nuova bianca > Paste &/o incolla.
In alternativa se non ti riesce dammi questi dati del video AVI

dati del Video
-Format
-Format profile
-format settings, BVOP : Yes o NO
-Code ID:
-Muxin Mode:

dati dell'Audio
-format:
-format profile:
Avatar utente
tinoo
Aficionado
Aficionado
 
Messaggi: 44
Iscritto il: lun dic 27, 2010 2:41 pm

Re: Conversione mp4

Messaggioda tinoo » mar dic 28, 2010 4:50 pm

Ti comunico che ho la linea ADSL Telecom in esaurimento da 8 Mega è passata a 1,5 Mega con telefono staccato,attendo la riparazione, se non ti riscontro più per qualche giorno, perché sono disconnesso dal Web.
Avatar utente
tinoo
Aficionado
Aficionado
 
Messaggi: 44
Iscritto il: lun dic 27, 2010 2:41 pm

Re: Conversione mp4

Messaggioda tique » mar dic 28, 2010 5:00 pm

Ecco il report del file convertito con FormatFactory 2.60

[list=] General
Complete name : H:\Home (IT) Italiano_(720p).avi
Format : AVI
Format/Info : Audio Video Interleave
Format profile : OpenDML
File size : 2.55 GiB
Duration : 1h 29mn
Overall bit rate : 4 072 Kbps
Writing application : MEncoder SVN-r30881(20100311-gcc4.3.3)
Writing library : MPlayer

Video
ID : 0
Format : MPEG-4 Visual
Format profile : AdvancedSimple@L5
Format settings, BVOP : Yes
Format settings, QPel : No
Format settings, GMC : No warppoints
Format settings, Matrix : Default (H.263)
Codec ID : XVID
Codec ID/Hint : XviD
Duration : 34mn 37s
Bit rate : 10.2 Mbps
Width : 1 280 pixels
Height : 720 pixels
Display aspect ratio : 16:9
Frame rate : 25.000 fps
Resolution : 24 bits
Colorimetry : 4:2:0
Scan type : Progressive
Bits/(Pixel*Frame) : 0.442
Stream size : 2.46 GiB (97%)
Writing library : XviD 1.2.1 (UTC 2008-12-04)

Audio
ID : 1
Format : MPEG Audio
Format version : Version 1
Format profile : Layer 3
Codec ID : 55
Codec ID/Hint : MP3
Duration : 1h 29mn
Bit rate mode : Constant
Bit rate : 128 Kbps
Channel(s) : 2 channels
Sampling rate : 44.1 KHz
Resolution : 16 bits
Video delay : 40ms
Stream size : 82.1 MiB (3%)
Alignment : Aligned on interleaves
Interleave, duration : 26 ms (0.65 video frame)
Interleave, preload duration : 522 ms
Writing library : LAME3.98

[/list]

Questo è invece il report del file originale MP4, che il mio lettore avrebbe dovuto leggere in quanto spacciato per compatibile MPEG4-2-etc etc
Se, come temo, la causa è del lettore, per favore segnalami sottovoce qualche marca o qualche modello più affidabile.

[list=]
General

Complete name : F:\Home (IT) Italiano_(720p).mp4
Format : MPEG-4
Format profile : Base Media / Version 2
Codec ID : mp42
File size : 1.32 GiB
Duration : 1h 29mn
Overall bit rate : 2 109 Kbps
Encoded date : UTC 2010-07-29 01:52:52
Tagged date : UTC 2010-07-29 01:52:52
gsst : 0
gstd : 5382160
gssd : B4A7D0347HH1291230452475801
gshh : v7.lscache6.c.youtube.com

Video
ID : 2
Format : AVC
Format/Info : Advanced Video Codec
Format profile : High@L3.1
Format settings, CABAC : Yes
Format settings, ReFrames : 1 frame
Codec ID : avc1
Codec ID/Info : Advanced Video Coding
Duration : 1h 29mn
Bit rate mode : Variable
Bit rate : 2 000 Kbps
Maximum bit rate : 9 025 Kbps
Width : 1 280 pixels
Height : 720 pixels
Display aspect ratio : 16:9
Frame rate mode : Constant
Frame rate : 25.000 fps
Resolution : 24 bits
Colorimetry : 4:2:0
Scan type : Progressive
Bits/(Pixel*Frame) : 0.087
Stream size : 1.25 GiB (95%)
Title : (C) 2007 Google Inc. v08.13.2007.
Encoded date : UTC 2010-07-29 01:52:55
Tagged date : UTC 2010-07-29 01:53:50

Audio
ID : 1
Format : AAC
Format/Info : Advanced Audio Codec
Format version : Version 4
Format profile : LC
Format settings, SBR : No
Codec ID : 40
Duration : 1h 29mn
Bit rate mode : Variable
Bit rate : 107 Kbps
Maximum bit rate : 145 Kbps
Channel(s) : 2 channels
Channel positions : L R
Sampling rate : 44.1 KHz
Resolution : 16 bits
Stream size : 68.5 MiB (5%)
Title : (C) 2007 Google Inc. v08.13.2007.
Encoded date : UTC 2010-07-29 01:52:52
Tagged date : UTC 2010-07-29 01:53:50


[/list]
Avatar utente
tique
Neo Iscritto
Neo Iscritto
 
Messaggi: 16
Iscritto il: sab dic 12, 2009 4:34 pm

Re: Conversione mp4

Messaggioda tinoo » mar dic 28, 2010 5:24 pm

OK Xvid, livello @5., il problema è sul video, l'audio mpeg layer 3 è standard
carica un video AVI che lo riproduci senza problemi e posta il Report.
Cosi li confrontiamo e arriviamo ha una soluzione.
Avatar utente
tinoo
Aficionado
Aficionado
 
Messaggi: 44
Iscritto il: lun dic 27, 2010 2:41 pm

Re: Conversione mp4

Messaggioda tique » mer dic 29, 2010 3:32 pm

Prima di caricare il report ho rifatto le prove per essere certo dei dati (formattata la chiavetta, ricopiati i files)
Quindi confermo: il report che segue è del file *.avi che viene regolarmente letto mentre quello precedente NON viene letto.
Aggiungo di aver fatto anche altre prove. Cioè ho inserito la chiavetta in una playstation PS3 ed entrambi i due filmati.avi erano visibili, quindi
mi sembra ragionevole concludere che il mio lettore (già non leggeva il file MP4 - mentre le specifiche lo davano compatibile - poi dei due files
avi ne legge uno solo) può benissimo essere usato come spessore per qualche tavolo traballante.

[list=]
General
Complete name : H:\Flash Forward - 1x01 -Mai Piu Giorni Felici.avi
Format : AVI
Format/Info : Audio Video Interleave
File size : 350 MiB
Duration : 41mn 7s
Overall bit rate : 1 189 Kbps
Writing application : VirtualDubMod 1.5.10.2 (build 2540/release)
Writing library : VirtualDubMod build 2540/release

Video
ID : 0
Format : MPEG-4 Visual
Format profile : AdvancedSimple@L5
Format settings, BVOP : Yes
Format settings, QPel : No
Format settings, GMC : No warppoints
Format settings, Matrix : Default (MPEG)
Codec ID : XVID
Codec ID/Hint : XviD
Duration : 41mn 7s
Bit rate : 1 059 Kbps
Width : 640 pixels
Height : 352 pixels
Display aspect ratio : 16:9
Frame rate : 25.000 fps
Resolution : 24 bits
Colorimetry : 4:2:0
Scan type : Progressive
Bits/(Pixel*Frame) : 0.188
Stream size : 311 MiB (89%)
Writing library : XviD 1.2.1 (UTC 2008-12-04)

Audio
ID : 1
Format : MPEG Audio
Format version : Version 1
Format profile : Layer 3
Codec ID : 55
Codec ID/Hint : MP3
Duration : 41mn 7s
Bit rate mode : Variable
Bit rate : 117 Kbps
Minimum bit rate : 32.0 Kbps
Channel(s) : 2 channels
Sampling rate : 48.0 KHz
Resolution : 16 bits
Stream size : 34.4 MiB (10%)
Alignment : Aligned on interleaves
Interleave, duration : 24 ms (0.60 video frame)
Interleave, preload duration : 324 ms
Writing library : LAME3.90.
Encoding settings : -m j -V 5 -q 2 -lowpass 18 --vbr-old -b 32


[/list]

Sono veramente curioso di conoscere quale è il problema
Qualche forum ti chiede di non dilungarti in ringraziamenti, ma ti faccio ugualmente tanti auguri per le prossime festività.
Avatar utente
tique
Neo Iscritto
Neo Iscritto
 
Messaggi: 16
Iscritto il: sab dic 12, 2009 4:34 pm

Re: Conversione mp4

Messaggioda tinoo » mer dic 29, 2010 7:13 pm

I DVD player da salotto supportano una Risoluzione video max. 768 x 576
I contenitori Video; AVI, MKV, e altri possono contere al loro interno flussi
Video e audio non compatibili per i DVD Payer da salotto.
Si può ricodificare il tutto flusso video e audio, risoluzione Video (con un REZIZE), occorre vedere se il gioco vale la candela.

i tuoi 3 video :
AVI_1 1280 x 720
MP4 1280 x 720 codec MPEG-4 AVC / H.264 e AR non compatibili
AVI_3 640 x 352 compatibile anche se il profilo è alto"AdvancedSimple@L5"

Quando trovo questi problemi converto il Contenitore in un "Video_ts(vob ,ifo,etc)"
con uno di questi software:
DVD flik
FAVC
Nero Vision
AVI2DVD
Questi software converono i contenitori in video x DVD player standard.
Avatar utente
tinoo
Aficionado
Aficionado
 
Messaggi: 44
Iscritto il: lun dic 27, 2010 2:41 pm

Re: Conversione mp4

Messaggioda tique » mer dic 29, 2010 8:50 pm

Splendido, quando ho dei problemi vorrei sempre avere risposte come la tua, cioè che seguano il tuo stesso schema logico
1 problema
2 spiegazione perché si crea il problema (questa è fondamentale)
3 soluzione
Peccato che non ho nessun altro problema da risolvere... per ora. Ciao
Avatar utente
tique
Neo Iscritto
Neo Iscritto
 
Messaggi: 16
Iscritto il: sab dic 12, 2009 4:34 pm

Re: Conversione mp4

Messaggioda tinoo » ven dic 31, 2010 8:33 am

Ciao e..... Buon Anno !
Avatar utente
tinoo
Aficionado
Aficionado
 
Messaggi: 44
Iscritto il: lun dic 27, 2010 2:41 pm

Re: Conversione mp4

Messaggioda tique » mar gen 04, 2011 5:47 pm

Sperando che Tinoo riceva la segnalazione per una nuova risposta al topic, riprendo per un problema che tuttavia ritengo pertinente.
Ero felice del risultato. Sulla chiavetta avevo i files creati da DVDFlick che il lettore leggeva benissimo. Qundo mi chiedo: masterizziamo i files su un DVD
In prima battuta uso Nero. Masterizzo il file principale (4.3 Giga) con le due sottodirectories (Audio e Video) ma rimanco incredulo, il lettore lo riproduce ma manca completamente il suono. Ricontrollo tutto e mi sembra di non aver fatto errori con Nero. Provo con CDBurnerXp ma pur inserendo un DVD da 4.7 ricevo la segnalazione che il supporto è troppo piccolo per i files da masterizzare. Insomma per ora non trovo il modo di creare un DVD.
Qualche suggerimento ??
Avatar utente
tique
Neo Iscritto
Neo Iscritto
 
Messaggi: 16
Iscritto il: sab dic 12, 2009 4:34 pm

Re: Conversione mp4

Messaggioda tinoo » mer gen 05, 2011 6:59 am

Carica questo file su Formatfactory dalla cartella " Video_ts"
VTS_01_1.VOB
Posta il report di analisi anche solo dell'audio.
Avatar utente
tinoo
Aficionado
Aficionado
 
Messaggi: 44
Iscritto il: lun dic 27, 2010 2:41 pm

Re: Conversione mp4

Messaggioda tique » gio gen 06, 2011 10:34 am

Ecco l'analisi del file Video. Credo però il problema sia correlato a Nero
Credo utile spiegare meglio cosa ho fatto. Per la conversione del file AVI ho indicato a DVDFlick di inserire i files convertiti in una cartella, diciamo principale. Alla fine ho trovato in questa cartella principale due sottoscartelle AUDIO-TS e VIDEO-TS. La prima (audio) è vuota mentre la seconda (video) presenta tre files Video-ts ed otto files VTS-01. Ho comunque copiato esattamente la cartella principale sulla chiavetta. Inserita la chiavetta nel lettore vedevo la schermata con la cartella principale e cliccando su questa (play) il lettore riproduceva video e suono.
Decidendo di masterizzare ho seguito la stessa procedura con Nero, copiando cioè la cartella principale e ovviamente le due sottocartella. Quando ho inserito il DVD ottenuto da Nero, vedevo la cartella principale ma cliccandoci sopra (play) il lettore non leggeva. Cliccando su questa cartella principale (enter) per passare alle directories successive vedevo infatti tutti i files VTS-01 ma usando il "play" (ho provato tutti) il lettore riproduceva il filmato ma senza suono.
Per pura curiosità ho provato a convertire il file AVI originario in file DVD utilizzando Nero. Nero ha prodotto un solo file (*.mpg) che vedevo ed ascolatavo benissimo. Quindi il problema credo risieda nella masterizzazione dei files ottenuti da DVDFlick , ma qui posso sicuramente aver fatto qualche stupidaggine indicando qualcosa di errato.
Ciao e grazie

    General
    Complete name : D:\Home_Flick_dvd\VIDEO_TS\VTS_01_1.VOB
    Format : MPEG-PS
    File size : 1 024 MiB
    Duration : 20mn 42s
    Overall bit rate : 6 911 Kbps

    Video
    ID : 224 (0xE0)
    Format : MPEG Video
    Format version : Version 2
    Format profile : Main@Main
    Format settings, Matrix : Default
    Duration : 20mn 42s
    Bit rate mode : Constant
    Bit rate : 6 445 Kbps
    Nominal bit rate : 6 586 Kbps
    Width : 720 pixels
    Height : 576 pixels
    Display aspect ratio : 16:9
    Frame rate : 25.000 fps
    Standard : PAL
    Colorimetry : 4:2:0
    Scan type : Progressive
    Bits/(Pixel*Frame) : 0.622
    Stream size : 955 MiB (93%)

    Audio
    ID : 128 (0x80)
    Format : AC-3
    Format/Info : Audio Coding 3
    Duration : 20mn 42s
    Bit rate mode : Constant
    Bit rate : 192 Kbps
    Channel(s) : 2 channels
    Channel positions : L R
    Sampling rate : 48.0 KHz
    Stream size : 28.4 MiB (3%)

    Menu


Avatar utente
tique
Neo Iscritto
Neo Iscritto
 
Messaggi: 16
Iscritto il: sab dic 12, 2009 4:34 pm

Re: Conversione mp4

Messaggioda tinoo » gio gen 06, 2011 11:22 am

Potrebbe trattarsi dell' audio in AC-3, non tutti i videoplayer datati da salotto lo accettano.
Controlla il formato Audio dell' MPEG in che formato è, presumo Mpeg layer3.
Avatar utente
tinoo
Aficionado
Aficionado
 
Messaggi: 44
Iscritto il: lun dic 27, 2010 2:41 pm

Re: Conversione mp4

Messaggioda tique » gio gen 06, 2011 5:32 pm

Risolto anche questo.
Nero ha un funzione Nero Recode che importa un filmato DVD e lo ricodifica masterizzandolo su DVD.
Il mio lettore "da salotto" ha riprodotto questo DVD senza problemi.
Il file audio, che Formatfactory indicava come AC3, com Nero Recode è diventato Dolby Digital 2
Tutto è bene quel che finisce bene
Avatar utente
tique
Neo Iscritto
Neo Iscritto
 
Messaggi: 16
Iscritto il: sab dic 12, 2009 4:34 pm


Torna a Audio e Video

Chi c’è in linea

Visitano il forum: Nessuno e 0 ospiti

Powered by phpBB © 2002, 2005, 2007, 2008 phpBB Group
Traduzione Italiana phpBB.it

megalab.it: testata telematica quotidiana registrata al Tribunale di Cosenza n. 22/09 del 13.08.2009, editore Master New Media S.r.l.; © Copyright 2008 Master New Media S.r.l. a socio unico - P.I. 02947530784. GRUPPO EDIZIONI MASTER Spa Tutti i diritti sono riservati. Per la pubblicità: Master Advertising