Login Esegui login | Non sei registrato? Iscriviti ora (è gratuito!)
Username: Password:
  • Annuncio Pubblicitario

Programma conversione e gestione immagini

Il forum riservato agli amici del Pinguino e al software libero.

Programma conversione e gestione immagini

Messaggioda adb » lun nov 08, 2010 8:26 pm

Ciao a tutti,
mi sapreste indicare un buon sostituto per linux di SUPER (convertitore audio video) e Irfanview(gestione immagini)

grazie mille a tutti!
Avatar utente
adb
Aficionado
Aficionado
 
Messaggi: 25
Iscritto il: mer set 08, 2010 8:07 pm

Re: Programma conversione e gestione immagini

Messaggioda farbix89 » mar nov 09, 2010 9:14 am

adb ha scritto:Ciao a tutti,
mi sapreste indicare un buon sostituto per linux di SUPER (convertitore audio video) e Irfanview(gestione immagini)


SUPER [f] Leggi questo


Irfanview [f] cerca gthumb nell'Ubuntu software center
Avatar utente
farbix89
Membro Ufficiale (Gold)
Membro Ufficiale (Gold)
 
Messaggi: 14093
Iscritto il: ven feb 13, 2009 10:09 pm

Re: Programma conversione e gestione immagini

Messaggioda adb » mar nov 09, 2010 7:05 pm

quell'articolo l'avevo già letto, e quando ho provato a convertire mi diceva che mi mancavano le librerie lame (non mi ricordo il nome preciso, comunque quelle per l'mp3)..
ho provato con sudo apt-get install lame, ma mi da pacchetto non trovato...
Avatar utente
adb
Aficionado
Aficionado
 
Messaggi: 25
Iscritto il: mer set 08, 2010 8:07 pm

Re: Programma conversione e gestione immagini

Messaggioda farbix89 » mar nov 09, 2010 7:37 pm

adb ha scritto:quell'articolo l'avevo già letto, e quando ho provato a convertire mi diceva che mi mancavano le librerie lame (non mi ricordo il nome preciso, comunque quelle per l'mp3)..
ho provato con sudo apt-get install lame, ma mi da pacchetto non trovato...


Apri un terminale e digita
Codice: Seleziona tutto
sudo apt-get install gstreamer0.10-pitfdll gstreamer0.10-ffmpeg 
gstreamer0.10-plugins-bad gstreamer0.10-plugins-bad-multiverse 
gstreamer0.10-plugins-ugly gstreamer0.10-plugins-ugly-multiverse
Avatar utente
farbix89
Membro Ufficiale (Gold)
Membro Ufficiale (Gold)
 
Messaggi: 14093
Iscritto il: ven feb 13, 2009 10:09 pm

Re: Programma conversione e gestione immagini

Messaggioda adb » mer nov 10, 2010 7:49 pm

quei paccetti sono già installati...
quando provo a convertire mi da
Codice: Seleziona tutto
FFmpeg version SVN-r0.5.1-4:0.5.1-1ubuntu1, Copyright (c) 2000-2009 Fabrice Bellard, et al.
  configuration: --extra-version=4:0.5.1-1ubuntu1 --prefix=/usr --enable-avfilter --enable-avfilter-lavf --enable-vdpau --enable-bzlib --enable-libgsm --enable-libschroedinger --enable-libspeex --enable-libtheora --enable-libvorbis --enable-pthreads --enable-zlib --disable-stripping --disable-vhook --enable-runtime-cpudetect --enable-gpl --enable-postproc --enable-swscale --enable-x11grab --enable-libdc1394 --enable-shared --disable-static
  libavutil     49.15. 0 / 49.15. 0
  libavcodec    52.20. 1 / 52.20. 1
  libavformat   52.31. 0 / 52.31. 0
  libavdevice   52. 1. 0 / 52. 1. 0
  libavfilter    0. 4. 0 /  0. 4. 0
  libswscale     0. 7. 1 /  0. 7. 1
  libpostproc   51. 2. 0 / 51. 2. 0
  built on Mar  4 2010 12:35:30, gcc: 4.4.3

Seems stream 0 codec frame rate differs from container frame rate: 50.00 (50/1) -> 25.00 (25/1)
Input #0, flv, from '/media/Disco locale/Musica/Video Vasco/Faccio il militare':
  Duration: 00:03:23.47, start: 0.000000, bitrate: 478 kb/s
    Stream #0.0: Video: h264, yuv420p, 640x356 [PAR 1:1 DAR 160:89], 478 kb/s, 25 tbr, 1k tbn, 50 tbc
    Stream #0.1: Audio: aac, 22050 Hz, stereo, s16
Unknown encoder 'libmp3lame'
Premere INVIO per continuare

e quando premo invio si chiude il terminale...

mentre se lo converto in wma ad esempio lo fa....
Avatar utente
adb
Aficionado
Aficionado
 
Messaggi: 25
Iscritto il: mer set 08, 2010 8:07 pm


Torna a Distribuzioni, Kernel e Software Applicativo

Chi c’è in linea

Visitano il forum: Nessuno e 2 ospiti

Powered by phpBB © 2002, 2005, 2007, 2008 phpBB Group
Traduzione Italiana phpBB.it

megalab.it: testata telematica quotidiana registrata al Tribunale di Cosenza n. 22/09 del 13.08.2009, editore Master New Media S.r.l.; © Copyright 2008 Master New Media S.r.l. a socio unico - P.I. 02947530784. GRUPPO EDIZIONI MASTER Spa Tutti i diritti sono riservati. Per la pubblicità: Master Advertising